.
Авторизация | Регистрация
Хочешь лучшие торренты? Добавь свой email!
Добавить
» » Неупокоенная / Dark Summer (2015) WEB-DL 720p | Чистый звук торрент скачать бесплатно




    Неупокоенная / Dark Summer (2015) WEB-DL 720p | Чистый звук торрент скачать бесплатно

    Опубликовал: Админ | Дата: 21-05-2015, 15:03 | Просмотров: 155


    Детально о кино
    Русское название: Неупокоенная
    Русское название в мировом прокате: Dark Summer
    Создали в: 2015
    Категория жанра: триллер, ужасы
    Главный режиссер: Пол Солет

    Актеры
    Кейр Гилкрист, Петер Стормаре, Грэйс Фиппс, Стелла Маив, Маэстро Харрелл

    Сюжет фильма
    История Дэниела Вильямса, 17-летнего подростка, которого суд приговорил к домашнему аресту на все лето. Пока его мать отлучилась по делам, в доме происходит происшествие, которое влечет за собой цепь страшных и непредсказуемых событий. Одноклассница Дэниэла звонит ему по скайпу и обвиняет его в том, что он довел ее самоубийства. Обвиняет и убивает себя прямо на его глазах. Перед смертью она говорит, что придет к нему после смерти и заберет его с собой…


    Снималось в: США
    Время просмотра: 01: 21: 37
    Тип перевода: Дублированное Чистый звукОфициальное
    Файл
    Тип видео: MKV
    Качество фильма: WEB-DL 720p
    Информация о видео: 3909 kb/s, 1280x720
    Информация о звуке: Russian: AC3, 384 kb/s (2 ch)/English: AC3, 384 kb/s (6 ch)
    Субтитры: English


    MI

    Format : Matroska
    Format version : Version 4/Version 2
    File size : 2.72 GiB
    Duration : 1h 21mn
    Overall bit rate : 4 772 Kbps
    Encoded date : UTC 2015-05-21 06: 27: 47
    Writing application : mkvmerge v6.5.0 (;Isn;t she lovely;) built on Oct 20 2013 12: 50: 05
    Writing library : libebml v1.3.0 + libmatroska v1.4.1
    Video
    ID : 1
    Format : AVC
    Format/Info : Advanced Video Codec
    Format profile : High@L3.1
    Format settings, CABAC : No
    Format settings, ReFrames : 2 frames
    Codec ID : V_MPEG4/ISO/AVC
    Duration : 1h 21mn
    Bit rate : 3 909 Kbps
    Width : 1 280 pixels
    Height : 720 pixels
    Display aspect ratio : 16: 9
    Frame rate : 23.976 fps
    Color space : YUV
    Chroma subsampling : 4: 2: 0
    Bit depth : 8 bits
    Scan type : Progressive
    Bits/(Pixel*Frame) : 0.177
    Stream size : 2.23 GiB (82%)
    Language : English
    Default : Yes
    Forced : No
    Color primaries : BT.709-5, BT.1361, IEC 61966-2-4, SMPTE RP177
    Transfer characteristics : BT.709-5, BT.1361
    Matrix coefficients : BT.709-5, BT.1361, IEC 61966-2-4 709, SMPTE RP177
    Audio #1
    ID : 2
    Format : AC-3
    Format/Info : Audio Coding 3
    Mode extension : CM (complete main)
    Format settings, Endianness : Big
    Codec ID : A_AC3
    Duration : 1h 21mn
    Bit rate mode : Constant
    Bit rate : 384 Kbps
    Channel(s) : 2 channels
    Channel positions : Front: L R
    Sampling rate : 48.0 KHz
    Bit depth : 16 bits
    Compression mode : Lossy
    Stream size : 224 MiB (8%)
    Language : Russian
    Default : Yes
    Forced : No
    Audio #2
    ID : 3
    Format : AC-3
    Format/Info : Audio Coding 3
    Mode extension : CM (complete main)
    Format settings, Endianness : Big
    Codec ID : A_AC3
    Duration : 1h 21mn
    Bit rate mode : Constant
    Bit rate : 384 Kbps
    Channel(s) : 6 channels
    Channel positions : Front: L C R, Side: L R, LFE
    Sampling rate : 48.0 KHz
    Bit depth : 16 bits
    Compression mode : Lossy
    Stream size : 224 MiB (8%)
    Language : English
    Default : No
    Forced : No
    Text
    ID : 4
    Format : UTF-8
    Codec ID : S_TEXT/UTF8
    Codec ID/Info : UTF-8 Plain Text
    Language : English
    Default : No
    Forced : No
    Menu
    00: 00: 00.000 : en: 1
    00: 10: 45.000 : en: 2
    00: 21: 42.000 : en: 3
    00: 29: 55.000 : en: 4
    00: 39: 57.000 : en: 5
    00: 49: 08.000 : en: 6
    01: 01: 02.000 : en: 7
    01: 10: 40.000 : en: 8
    01: 16: 11.000 : en: 9
    Скриншоты


    Онлайн видео Неупокоенная


    Размер скачиваемого торрента: 2.72 GB (2921166861 Bytes)

    Неупокоенная/Dark Summer (2015) WEB-DL 720p | Чистый звук
    загрузка...
    Рейтинг →
     (голосов: 1, оценка 4/5, голосовать можно 1 раз )

    Другие торренты по теме:

  • Неупокоенная / Dark Summer (2015) WEB-DLRip-AVC от ExKinoRay
  • Неупокоенная / Dark Summer (2015) WEB-DLRip | Чистый звук
  • Неупокоенная / Dark Summer


    • Комментарии (0):

      Информация

      Информация

        Посетители, находящиеся в группе Гости, не могут оставлять комментарии в данной новости.

        ↓ Меню



        ↓ Опрос

        Вы добавили сайт в закладки?
        Да
        Нет


        Top 10 за месяц (Фильмы)