.
Авторизация | Регистрация
Хочешь лучшие торренты? Добавь свой email!
Добавить
» » Работорговля / Skin Trade (2014) BDRip 720p | L2 торрент скачать бесплатно




    Работорговля / Skin Trade (2014) BDRip 720p | L2 торрент скачать бесплатно

    Опубликовал: Админ | Дата: 14-05-2015, 18:54 | Просмотров: 145


    Детально о кино
    Русское название: Работорговля
    Русское название в мировом прокате: Skin Trade
    Создали в: 2014
    Категория жанра: боевик, триллер, драма
    Главный режиссер: Экачай Уэкронгтам

    Актеры
    Рон Перлман, Дольф Лундгрен, Питер Уэллер, Майкл Джей Уайт, Тони Джа, Селина Жаде, Конан Стивенс, Кэри-Хироюки Тагава, Тася Телес, Майк Допуд

    Сюжет фильма
    Подпольная, теневая торговля, чёрный рынок — синонимы одной из острейших и наболевших проблем современного общества. Но сбыт человеческих органов — ещё более страшная реальность, с которой сталкивается герой столь непростой истории. Полицейский-детектив расследует дело о похищении и вероятности продажи на органы одной девушки.
    Распутывая клубок гениально спланированного преступления, он лицом к лицу сталкивается с целой подпольной системой, рынком рабов, в котором свои заправилы и боссы являются вершителями судеб сотен и тысяч невинных и беззащитных. Приоткрыв завесу над кошмаром во плоти, простому копу придётся вступить в неравную борьбу с представителями рынка, в борьбу, из которой практически невозможно выйти победителем…


    Снималось в: США, Таиланд, Канада
    Время просмотра: 01: 35: 48
    Тип перевода: Любительское (двухголосое)
    Файл
    Тип видео: MKV
    Качество фильма: BDRip 720p
    Информация о видео: 6886 Кбит/с, 1280x528
    Информация о звуке: Русский (AC3, 2 ch, 192 Кбит/с), английский (DTS, 6 ch, 1510 Кбит/с)
    Субтитры: English
    MI
    Общее
    Формат : Matroska
    Версия формата : Version 4/Version 2
    Размер файла : 5, 75 Гбайт
    Продолжительность : 1 ч. 35 м.
    Общий поток : 8589 Кбит/сек
    Дата кодирования : UTC 2015-05-12 15: 25: 50
    Программа кодирования : mkvmerge v6.5.0 (;Isn;t she lovely;) built on Oct 20 2013 12: 50: 05
    Библиотека кодирования : libebml v1.3.0 + libmatroska v1.4.1
    DURATION : 01: 29: 30.097000000
    NUMBER_OF_FRAMES : 518
    NUMBER_OF_BYTES : 18236
    Видео
    Идентификатор : 1
    Формат : AVC
    Формат/Информация : Advanced Video Codec
    Профиль формата : High@L4.1
    Параметр CABAC формата : Да
    Параметр ReFrames формата : 11 кадров
    Идентификатор кодека : V_MPEG4/ISO/AVC
    Продолжительность : 1 ч. 35 м.
    Битрейт : 6886 Кбит/сек
    Ширина : 1280 пикселей
    Высота : 528 пикселей
    Соотношение сторон : 2, 40: 1
    Режим частоты кадров : Постоянный
    Частота кадров : 23, 976 кадра/сек
    Цветовое пространство : YUV
    Субдискретизация насыщенности : 4: 2: 0
    Битовая глубина : 8 бит
    Тип развёртки : Прогрессивная
    Бит/(Пиксели*Кадры) : 0.425
    Размер потока : 4, 50 Гбайт (78%)
    Библиотека кодирования : x264 core 146 r2538kMod 121396c
    Язык : English
    Default : Да
    Forced : Нет
    Коэффициенты матрицы : BT.709
    colour_range : Limited
    DURATION : 01: 35: 48.243000000
    NUMBER_OF_FRAMES : 137820
    NUMBER_OF_BYTES : 4947496082
    Аудио #1
    Идентификатор : 2
    Формат : AC-3
    Формат/Информация : Audio Coding 3
    Расширение режима : CM (complete main)
    Параметр Endianness формата : Big
    Идентификатор кодека : A_AC3
    Продолжительность : 1 ч. 35 м.
    Вид битрейта : Постоянный
    Битрейт : 192 Кбит/сек
    Каналы : 2 канала
    Расположение каналов : Front: L R
    Частота : 48, 0 КГц
    Битовая глубина : 16 бит
    Метод сжатия : С потерями
    Размер потока : 132 Мбайт (2%)
    Язык : Russian
    Default : Да
    Forced : Нет
    Аудио #2
    Идентификатор : 3
    Формат : DTS
    Формат/Информация : Digital Theater Systems
    Режим : 16
    Параметр Endianness формата : Big
    Идентификатор кодека : A_DTS
    Продолжительность : 1 ч. 35 м.
    Вид битрейта : Постоянный
    Битрейт : 1509 Кбит/сек
    Каналы : 6 каналов
    Расположение каналов : Front: L C R, Side: L R, LFE
    Частота : 48, 0 КГц
    Битовая глубина : 24 бит
    Метод сжатия : С потерями
    Размер потока : 1, 01 Гбайт (18%)
    Язык : English
    Default : Нет
    Forced : Нет
    Текст
    Идентификатор : 4
    Формат : UTF-8
    Идентификатор кодека : S_TEXT/UTF8
    Идентификатор кодека/Информация : UTF-8 Plain Text
    Язык : English
    Default : Нет
    Forced : Нет
    Меню
    00: 00: 00.000 : en: 1
    00: 03: 15.000 : en: 2
    00: 11: 08.000 : en: 3
    00: 18: 40.000 : en: 4
    00: 23: 27.000 : en: 5
    00: 29: 37.000 : en: 6
    00: 34: 53.000 : en: 7
    00: 39: 44.000 : en: 8
    00: 47: 12.000 : en: 9
    00: 50: 53.000 : en: 10
    00: 55: 48.000 : en: 11
    01: 01: 09.000 : en: 12
    01: 06: 21.000 : en: 13
    01: 14: 04.000 : en: 14
    01: 20: 46.000 : en: 15
    01: 28: 28.000 : en: 16
    Скриншоты


    Онлайн видео Работорговля


    Размер скачиваемого торрента: 5.75 GB (6171668854 Bytes)

    Работорговля/Skin Trade (2014) BDRip 720p | L2
    загрузка...
    Рейтинг →
     (голосов: 1, оценка 4/5, голосовать можно 1 раз )

    Другие торренты по теме:

  • Работорговля / Skin Trade (2014) BDRip 720p | L2
  • Работорговля / Skin Trade (2014) WEB-DLRip-AVC | L2
  • Работорговля / Skin Trade
  • Работорговля / Skin Trade (Экачай Уэкронгтам) [2014, боевик, триллер, драма, BDRip] AVO


    • Комментарии (0):

      Информация

      Информация

        Посетители, находящиеся в группе Гости, не могут оставлять комментарии в данной новости.

        ↓ Меню



        ↓ Опрос

        Вы добавили сайт в закладки?
        Да
        Нет


        Top 10 за месяц (Фильмы)