.
Авторизация | Регистрация
Хочешь лучшие торренты? Добавь свой email!
Добавить
» » Фаворит / Seabiscuit (2003) BDRip 720p | D, A торрент скачать бесплатно




    Фаворит / Seabiscuit (2003) BDRip 720p | D, A торрент скачать бесплатно

    Опубликовал: Админ | Дата: 25-05-2015, 12:21 | Просмотров: 105


    Детально о кино
    Русское название: Фаворит
    Русское название в мировом прокате: Seabiscuit
    Создали в: 2003
    Категория жанра: драма, исторический, спорт
    Главный режиссер: Гэри Росс/Gary Ross/

    Актеры
    Тоби Магуайр/Tobey Maguire/ , Джефф Бриджес/Jeff Bridges/ , Крис Купер/Chris Cooper/ , Уильям Х. Мэйси/William H. Macy/ , Валери Махаффей/Valerie Mahaffey/ , Майкл О’Нил/Michael O;Neill/ , Сэм Боттомс/Sam Bottoms/ , Эд Лотер/Ed Lauter/ , Элизабет Бэнкс/Elizabeth Banks/ , Питер Джейсон/Peter Jason/

    Сюжет фильма

    Америка 30-х, Великая депрессия в разгаре. Свободное время люди проводят в тщетных поисках работы или просто отправляются искать счастья на ипподроме. Ставки невысоки, но их много… На местном ипподроме появляется темная лошадка: маленькая, кряжистая и, кажется, не годная для гонок.
    Ее жокей Ред Поллард — слепнущий чемпион по боксу в супер-легком весе. Ее тренер — Том Смит, бывший цирковой силач по кличке Разрушитель мустангов. А хозяин лошадки — Чарльз Ховард, человек, который позже наладил торговлю автомобилями по всей Западной Америке.
    Но пока вся страна с живым интересом следит за восхождением Фаворита. Ведь невзрачной лошадке с полуслепым наездником удастся обогнать непобедимого фаворита скачек Военного Адмирала, и добиться титула Лучшая Лошадь 1938 года.

    Снималось в: США
    Студии: Universal Pictures/DreamWorks SKG/Spyglass Entertainment
    Время просмотра: 02: 20: 25
    Перевод текста:
    Профессиональный (дублированный) -студия Мосфильм-Мастер
    Авторский (одноголосый, закадровый) -Юрий Живов
    Рип от CHD!
    Файл
    Кодек для видео: H.264
    Качество фильма: BDRip 720p
    Информация о видео: 1280x544 at 23.976 fps, x264@L4.1, 2pass, ~4957 kbps avg
    Информация о звуке#1: Russian: 48 kHz, AC3, 3/2 (L, C, R, l, r) + LFE ch, ~448.00 kbps avg |Дублированный, студия Мосфильм-Мастер |
    Информация о звуке#2: Russian: 48 kHz, AC3, 2/0 (L, R) ch, ~192.00 kbps avg |Одноголосый закадровый, Юрий Живов |
    Информация о звуке#3: English: 48 kHz, DTS, 3/2 (L, C, R, l, r) + LFE ch, ~1509.00 kbps avg |Оригинал|
    Субтитры: Russian (Full), English (Full)
    Скриншоты

    MediaInfo
    General
    Complete name : Seabiscuit.2003.720p.BluRay.2xRus.Eng.CHD.mkv
    Format : Matroska
    Format version : Version 4/Version 2
    File size : 6.98 GiB
    Duration : 2h 20mn
    Overall bit rate : 7 115 Kbps
    Movie name : Seabiscuit (2003)
    Encoded date : UTC 2015-05-24 17: 25: 01
    Writing application : mkvmerge v7.9.0 (;Birds;) 64bit
    Writing library : libebml v1.3.1 + libmatroska v1.4.2
    Video
    ID : 1
    Format : AVC
    Format/Info : Advanced Video Codec
    Format profile : High@L4.1
    Format settings, CABAC : Yes
    Format settings, ReFrames : 8 frames
    Codec ID : V_MPEG4/ISO/AVC
    Duration : 2h 20mn
    Bit rate : 4 957 Kbps
    Width : 1 280 pixels
    Height : 544 pixels
    Display aspect ratio : 2.35: 1
    Frame rate mode : Constant
    Frame rate : 23.976 fps
    Color space : YUV
    Chroma subsampling : 4: 2: 0
    Bit depth : 8 bits
    Scan type : Progressive
    Bits/(Pixel*Frame) : 0.297
    Stream size : 4.73 GiB (68%)
    Title : Seabiscuit (2003)
    Writing library : x264 core 88 r1471 1144615
    Encoding settings : cabac=1/ref=8/deblock=1: -3: -3/analyse=0x3: 0x113/me=umh/subme=9/psy=1/psy_rd=1.00: 0.10/mixed_ref=1/me_range=32/chroma_me=1/trellis=2/8x8dct=1/cqm=2/deadzone=21, 11/fast_pskip=0/chroma_qp_offset=-2/threads=6/sliced_threads=0/nr=0/decimate=1/mbaff=0/constrained_intra=0/bframes=3/b_pyramid=2/b_adapt=2/b_bias=0/direct=3/wpredb=1/wpredp=2/keyint=250/keyint_min=25/scenecut=40/intra_refresh=0/rc_lookahead=60/rc=2pass/mbtree=1/bitrate=4957/ratetol=1.0/qcomp=0.60/qpmin=10/qpmax=51/qpstep=4/cplxblur=20.0/qblur=0.5/vbv_maxrate=50000/vbv_bufsize=50000/ip_ratio=1.40/aq=1: 0.60
    Language : English
    Default : Yes
    Forced : No
    Audio #1
    ID : 2
    Format : AC-3
    Format/Info : Audio Coding 3
    Mode extension : CM (complete main)
    Format settings, Endianness : Big
    Codec ID : A_AC3
    Duration : 2h 20mn
    Bit rate mode : Constant
    Bit rate : 448 Kbps
    Channel(s) : 6 channels
    Channel positions : Front: L C R, Side: L R, LFE
    Sampling rate : 48.0 KHz
    Bit depth : 16 bits
    Compression mode : Lossy
    Delay relative to video : 946ms
    Stream size : 450 MiB (6%)
    Title : AC3 5.1 ch @ 448 kbps - DUB (студия Мосфильм-Мастер)
    Language : Russian
    Default : Yes
    Forced : No
    Audio #2
    ID : 3
    Format : AC-3
    Format/Info : Audio Coding 3
    Mode extension : CM (complete main)
    Format settings, Endianness : Big
    Codec ID : A_AC3
    Duration : 2h 20mn
    Bit rate mode : Constant
    Bit rate : 192 Kbps
    Channel(s) : 2 channels
    Channel positions : Front: L R
    Sampling rate : 48.0 KHz
    Bit depth : 16 bits
    Compression mode : Lossy
    Stream size : 193 MiB (3%)
    Title : AC3 2.0 ch @ 192 kbps - AVO (Ю. Живов)
    Language : Russian
    Default : No
    Forced : No
    Audio #3
    ID : 4
    Format : DTS
    Format/Info : Digital Theater Systems
    Mode : 16
    Format settings, Endianness : Big
    Codec ID : A_DTS
    Duration : 2h 20mn
    Bit rate mode : Constant
    Bit rate : 1 509 Kbps
    Channel(s) : 6 channels
    Channel positions : Front: L C R, Side: L R, LFE
    Sampling rate : 48.0 KHz
    Bit depth : 24 bits
    Compression mode : Lossy
    Stream size : 1.48 GiB (21%)
    Title : DTS 5.1 ch @ 1509 kbps
    Language : English
    Default : No
    Forced : No
    Text #1
    ID : 5
    Format : UTF-8
    Codec ID : S_TEXT/UTF8
    Codec ID/Info : UTF-8 Plain Text
    Title : Full
    Language : Russian
    Default : No
    Forced : No
    Text #2
    ID : 6
    Format : UTF-8
    Codec ID : S_TEXT/UTF8
    Codec ID/Info : UTF-8 Plain Text
    Title : Full
    Language : English
    Default : No
    Forced : No
    Menu
    00: 00: 00.000 : en: 1
    00: 03: 07.312 : en: 2
    00: 10: 52.151 : en: 3
    00: 12: 49.518 : en: 4
    00: 18: 12.382 : en: 5
    00: 20: 30.312 : en: 6
    00: 27: 10.629 : en: 7
    00: 39: 35.873 : en: 8
    00: 44: 03.265 : en: 9
    00: 47: 08.075 : en: 10
    00: 53: 05.473 : en: 11
    00: 58: 38.640 : en: 12
    01: 00: 33.963 : en: 13
    01: 06: 46.002 : en: 14
    01: 13: 03.045 : en: 15
    01: 14: 31.049 : en: 16
    01: 17: 57.839 : en: 17
    01: 21: 05.318 : en: 18
    01: 23: 08.733 : en: 19
    01: 27: 59.899 : en: 20
    01: 35: 19.213 : en: 21
    01: 39: 05.898 : en: 22
    01: 48: 32.505 : en: 23
    01: 59: 21.779 : en: 24
    02: 08: 12.768 : en: 25
    Дополнительная информация
    Цитата Кто-тописал:
    Сохранены оригинальные главы как на Blu-ray.


    Онлайн видео Фаворит


    Размер скачиваемого торрента: 6.98 GB (7493257487 Bytes)

    Фаворит/Seabiscuit (2003) BDRip 720p | D, A
    загрузка...
    Рейтинг →
     (голосов: 1, оценка 5/5, голосовать можно 1 раз )

    Другие торренты по теме:

  • Фаворит. Роман-хроника времён Екатерины II скачать через торрент бесплатно
  • Фаворит императрицы: Кладоискатели (1 книга из 2) (Нина Соротокина) / [2015, Исторические приключения, аудиокнига, MP3, 96kbps, Вячеслав Герасимов]
  • Фаворит 1. Его императрица (Пикуль Валентин) / [2016, Роман-хроника, аудиокнига, MP3, 64kbps, Александр Бордуков]
  • Фидель Кастро. Фаворит языческого бога (1-2 серии из 2) (Алексей Панков) / [2008, документальный, SATRip]
  • Фаворит языческого бога (2 серии из 2) (Алексей Панков) / [2008, документальный, биография, история, политика, SATRip]


    • Комментарии (0):

      Информация

      Информация

        Посетители, находящиеся в группе Гости, не могут оставлять комментарии в данной новости.

        ↓ Меню



        ↓ Опрос

        Вы добавили сайт в закладки?
        Да
        Нет


        Top 10 за месяц (Фильмы)