.
Авторизация | Регистрация
Хочешь лучшие торренты? Добавь свой email!
Добавить
» » Тахир и Зухра (1946) DVDRip от New-Team торрент скачать бесплатно




    Тахир и Зухра (1946) DVDRip от New-Team торрент скачать бесплатно

    Опубликовал: Админ | Дата: 14-05-2015, 18:54 | Просмотров: 179


    Снималось в: СССР
    Создали в: Студия Ташкент
    Категория жанра: мелодрама, история
    Создали в: 1946
    Время просмотра: 1: 24: 39
    Перевод текста: Не требуется
    Субтитры подготовлены: нет
    Оригинальная аудиодорожка: русский
    Главный режиссер: Наби Ганиев

    Актеры

    Ю. Ризаева, Г. Аглаев, Асад Исматов, Шукур Бурханов, Раззак Хамраев, А. Хидоятов , Абуд Джалилов, С. Талипов, Х. Ганиева , З. Ганиева, Рахим Пирмухамедов, С. Тибибулаев, Малик Юнусов, Эргаш Каримов, Н. Ишмухамедов...
    Описание:
    По мотивам узбекской народной легенды.О трагической любви ханской дочери красавицы Зухры и храброго Тахира, сына военачальника...
    Фильм Тахир и Зухра похож на многочисленные сказки - фильмы, снятые в советские времена. Этакий Морозко на восточный лад.



    Источник: DVD5 R5
    Качество фильма видео: DVDRip
    Тип видео видео: AVI
    Информация о видео: 672x496 (4: 3), 25 fps, XviD ~ 1639 kbps avg, 0.197 bit/pixel
    Информация о звуке: 48 kHz, Dolby Digital AC3 2.0, 192 kbps
    Раздача от:
    MediaInfo

    Общее
    Полное имя : Tahir.i.Zuhra.1946.DVDRip_New-team_by_AVP_Studio.avi
    Формат : AVI
    Формат/Информация : Audio Video Interleave
    Размер файла : 1, 09 Гбайт
    Продолжительность : 1 ч. 24 м.
    Общий поток : 1841 Кбит/сек
    Программа кодирования : VirtualDubModRus 1.5.10.2 (build 2542/release)
    Библиотека кодирования : VirtualDubMod build 2542/release
    Видео
    Идентификатор : 0
    Формат : MPEG-4 Visual
    Профиль формата : Advanced Simple@L5
    Параметр BVOP формата : 1
    Параметр QPel формата : Нет
    Параметр GMC формата : Без точки перехода
    Параметр матрицы формата : Выборочная
    Идентификатор кодека : XVID
    Идентификатор кодека/Подсказка : XviD
    Продолжительность : 1 ч. 24 м.
    Битрейт : 1639 Кбит/сек
    Ширина : 672 пикселя
    Высота : 496 пикселей
    Соотношение сторон : 4: 3
    Частота кадров : 25, 000 кадров/сек
    Цветовое пространство : YUV
    Субдискретизация насыщенности : 4: 2: 0
    Битовая глубина : 8 бит
    Тип развёртки : Прогрессивная
    Метод сжатия : С потерями
    Бит/(Пиксели*Кадры) : 0.197
    Размер потока : 992 Мбайт (89%)
    Библиотека кодирования : XviD 73
    Аудио
    Идентификатор : 1
    Формат : AC-3
    Формат/Информация : Audio Coding 3
    Расширение режима : CM (complete main)
    Параметр Endianness формата : Big
    Идентификатор кодека : 2000
    Продолжительность : 1 ч. 24 м.
    Вид битрейта : Постоянный
    Битрейт : 192 Кбит/сек
    Каналы : 2 канала
    Расположение каналов : Front: L R
    Частота : 48, 0 КГц
    Битовая глубина : 16 бит
    Метод сжатия : С потерями
    Размер потока : 116 Мбайт (10%)
    Выравнивание : Разделение по промежуткам
    Продолжительность промежутка : 40 мс. (1, 00 видеокадр)
    Время предзагрузки промежутка : 500 мс

    Скриншоты



    Залил: AVPStudio

    Онлайн видео Тахир и Зухра (1946) DVDRip от New


    Размер скачиваемого торрента: 1.09 GB (1168611328 Bytes)

    Тахир и Зухра (1946) DVDRip от New-Team
    загрузка...
    Рейтинг →
     (голосов: 1, оценка 4/5, голосовать можно 1 раз )

    Другие торренты по теме:

  • Тахир и Зухра (1946) DVDRip от New-Team


    • Комментарии (0):

      Информация

      Информация

        Посетители, находящиеся в группе Гости, не могут оставлять комментарии в данной новости.

        ↓ Меню



        ↓ Опрос

        Вы добавили сайт в закладки?
        Да
        Нет


        Top 10 за месяц (Фильмы)

        Агенты 003 (Эфир от 12.11.2016) (ТНТ) / [2016, ТВ-шоу, SATRip]
        Агенты 003
        (скачиваний: 4)
        Игра в прятки. Тайная история камуфляжа / Dazzle. The hidden story of camouflage (Кейт Паппас) [2015, документальный, история, военный, познавательный, IPTVRip]
        Игра в прятки. О таком странном сюжете не догадывалась даже Волочкова. Тайная история камуфляжа/Dazzle. Все это как снег на голову, во все лопатки. The hidden story of camouflage
        (скачиваний: 3)
        Универ. Новая общага. Новогодняя (141 серия)
        Универ. Cтроки эти как вершины поэзии. Новая общага. Как для меня не ожиданный поворот событий. Новогодняя
        (скачиваний: 3)
        Kingsman: Секретная служба / Kingsman: The Secret Service (Мэттью Вон) [2014, боевик, комедия, криминал, приключения, Blu-ray 1080p] 2xDUB (rus, ukr)
        Kingsman: Секретная служба/Kingsman: The Secret Service
        (скачиваний: 2)
        Тайная жизнь слонов (3 серии из 3) / The Secret Life of Elephants
        Тайная жизнь слонов
        (скачиваний: 2)
        Перл Харбор / Pearl Harbor
        Перл Харбор/Pearl Harbor
        (скачиваний: 2)
        Жажда скорости 3D [Горизонтальная стереопара] / Need for Speed 3D [Half Side-by-Side] скачать через торрент бесплатно
        Жажда скорости 3D Горизонтальная стереопара/Need for Speed 3D Half Side-by-Side
        (скачиваний: 2)
        Майдан. Революция обмана [Эфир от 20.02.2015] скачать через торрент бесплатно
        Майдан. Да м, ангельское терпение. Революция обмана Эфир от 20.02.2015
        (скачиваний: 2)
        "Сегодня вечером" с Андреем Малаховым. Кристина Орбакайте (Эфир от 28.05.2016) (ТК "Первый") / [2016, тв-шоу, SATRip]
        quot;Сегодня вечеромquot; с Андреем Малаховым. Да м, ангельское терпение. Кристина Орбакайте
        (скачиваний: 2)
        Три дня до весны / Ленинградский вальс (Александр Касаткин) [2017, военный, детектив, DVDRір]
        Три дня до весны/Ленинградский вальс
        (скачиваний: 2)