.
Авторизация | Регистрация
Хочешь лучшие торренты? Добавь свой email!
Добавить
» » Курт Сеит и Александра / Kurt Seyit ve Sura (2014) WEB-DLRip | D торрент скачать бесплатно




    Курт Сеит и Александра / Kurt Seyit ve Sura (2014) WEB-DLRip | D торрент скачать бесплатно

    Опубликовал: Админ | Дата: 18-05-2015, 10:14 | Просмотров: 157


    Детально о кино
    Русское название: Курт Сеит и Александра/Курт Сеит и Шура
    Русское название в мировом прокате: Kurt Seyit ve Sura
    Создали в: 2014
    Категория жанра: драма, мелодрама, военный, история
    Главный режиссер: Хилаль Сарал

    Актеры
    Кыванч Татлытуг, Фара Зейнеп Абдулла, Berk Er?er, Сердар Гёкхан, Седа Гувен, Sarp Can K?roglu, Биркан Сокуллу, Ushan ?akir, Сергей Тэсслер

    Сюжет фильма

    Герои переживут крах правящей царской династии и Октябрьскую революцию. На фоне этих исторических событий, полных трагизма, горьких утрат, жестоких разочарований, и развернется история любви между бывшим офицером Царской армии лейтенантом Куртом Сеитом и шестнадцатилетней девушкой из аристократического рода Шурой.
    Официальный сайт
    Снималось в: Турция
    Киностудия: Ay Yapim, Star TV
    Время просмотра: ~ 01: 30: 00 серия
    Перевод текста: Професиональный (полное дублирование)Дубляж выполнен студией СВ-Дубль по заказу телеканала Домашний
    Файл
    Кодек для видео: XviD/MP3
    Качество фильма: WEB-DLRip
    Информация о видео: MPEG4, XviD, 720x400 (16: 9), 25.000 fps, 1 312 Kbps (0.182 bit/pixel)
    Информация о звуке: MP3, 44.1 KHz, 2 ch, 128 Kbps, CBR
    Скриншоты
    Screenshots
    MediaInfo
    General
    Complete name : Kurt Seyit ve Sura.s01.e14.avi
    Format : AVI
    Format/Info : Audio Video Interleave
    File size : 986 MiB
    Duration : 1h 35mn
    Overall bit rate : 1 450 Kbps
    Writing application : VirtualDubModRus 1.5.10.2 (build 2542/release)
    Writing library : VirtualDubMod build 2542/release
    TCOD : 0
    TCDO : 57029200000
    Video
    ID : 0
    Format : MPEG-4 Visual
    Format profile : Advanced Simple@L5
    Format settings, BVOP : 2
    Format settings, QPel : No
    Format settings, GMC : No warppoints
    Format settings, Matrix : Default (H.263)
    Muxing mode : Packed bitstream
    Codec ID : XVID
    Codec ID/Hint : XviD
    Duration : 1h 35mn
    Bit rate : 1 312 Kbps
    Width : 720 pixels
    Height : 400 pixels
    Display aspect ratio : 16: 9
    Frame rate : 25.000 fps
    Color space : YUV
    Chroma subsampling : 4: 2: 0
    Bit depth : 8 bits
    Scan type : Progressive
    Compression mode : Lossy
    Bits/(Pixel*Frame) : 0.182
    Stream size : 892 MiB (91%)
    Writing library : XviD 73
    Audio
    ID : 1
    Format : MPEG Audio
    Format version : Version 1
    Format profile : Layer 3
    Mode : Dual mono
    Codec ID : 55
    Codec ID/Hint : MP3
    Duration : 1h 35mn
    Bit rate mode : Constant
    Bit rate : 128 Kbps
    Channel(s) : 2 channels
    Sampling rate : 44.1 KHz
    Compression mode : Lossy
    Stream size : 87.0 MiB (9%)
    Alignment : Split accross interleaves
    Interleave, duration : 40 ms (1.00 video frame)
    Interleave, preload duration : 500 ms


    Онлайн видео Курт Сеит и Александра


    Размер скачиваемого торрента: 4.86 GB (5223457304 Bytes)

    Курт Сеит и Александра/Kurt Seyit ve Sura (2014) WEB-DLRip | D
    загрузка...
    Рейтинг →
     (голосов: 1, оценка 4/5, голосовать можно 1 раз )

    Другие торренты по теме:

  • Курт Сеит и Александра / Kurt Seyit ve Sura (2014) SATRip | D
  • Курт Сеит и Шура / Kurt Seyit ve Sura
  • Курт Сеит и Александра / Kurt Seyit ve Sura (2014) SATRip | D


    • Комментарии (0):

      Информация

      Информация

        Посетители, находящиеся в группе Гости, не могут оставлять комментарии в данной новости.

        ↓ Меню



        ↓ Опрос

        Вы добавили сайт в закладки?
        Да
        Нет


        Top 10 за месяц (Фильмы)

        Агенты 003 (Эфир от 12.11.2016) (ТНТ) / [2016, ТВ-шоу, SATRip]
        Агенты 003
        (скачиваний: 4)
        Игра в прятки. Тайная история камуфляжа / Dazzle. The hidden story of camouflage (Кейт Паппас) [2015, документальный, история, военный, познавательный, IPTVRip]
        Игра в прятки. О таком странном сюжете не догадывалась даже Волочкова. Тайная история камуфляжа/Dazzle. Все это как снег на голову, во все лопатки. The hidden story of camouflage
        (скачиваний: 3)
        Универ. Новая общага. Новогодняя (141 серия)
        Универ. Cтроки эти как вершины поэзии. Новая общага. Как для меня не ожиданный поворот событий. Новогодняя
        (скачиваний: 3)
        Красный монарх / Red Monarch (Джек Голд) [1983, драма, комедия, DVDRip] DVO
        Красный монарх/Red Monarch
        (скачиваний: 2)
        Жажда скорости 3D [Горизонтальная стереопара] / Need for Speed 3D [Half Side-by-Side] скачать через торрент бесплатно
        Жажда скорости 3D Горизонтальная стереопара/Need for Speed 3D Half Side-by-Side
        (скачиваний: 2)
        "Сегодня вечером" с Андреем Малаховым. Кристина Орбакайте (Эфир от 28.05.2016) (ТК "Первый") / [2016, тв-шоу, SATRip]
        quot;Сегодня вечеромquot; с Андреем Малаховым. Да м, ангельское терпение. Кристина Орбакайте
        (скачиваний: 2)
        Варкрафт / Warcraft (Дункан Джонс) [2016, фэнтези, боевик, приключения, Telecine-AVC] DUB
        Варкрафт/Warcraft
        (скачиваний: 2)
        Три дня до весны / Ленинградский вальс (Александр Касаткин) [2017, военный, детектив, DVDRір]
        Три дня до весны/Ленинградский вальс
        (скачиваний: 2)
        Kingsman: Секретная служба / Kingsman: The Secret Service (Мэттью Вон) [2014, боевик, комедия, криминал, приключения, Blu-ray 1080p] 2xDUB (rus, ukr)
        Kingsman: Секретная служба/Kingsman: The Secret Service
        (скачиваний: 2)
        Майдан. Революция обмана [Эфир от 20.02.2015] скачать через торрент бесплатно
        Майдан. Да м, ангельское терпение. Революция обмана Эфир от 20.02.2015
        (скачиваний: 2)