.
Авторизация | Регистрация
Хочешь лучшие торренты? Добавь свой email!
Добавить
» » Батл Крик / Battle Creek (2015) WEB-DLRip | Gears Media торрент скачать бесплатно




    Батл Крик / Battle Creek (2015) WEB-DLRip | Gears Media торрент скачать бесплатно

    Опубликовал: Админ | Дата: 21-05-2015, 15:04 | Просмотров: 220


    Создали в: 2015
    Снималось в: США
    Категория жанра: драма, криминал
    Время просмотра: 1x ~42 мин.
    Перевод текста: Профессиональный (многоголосый закадровый) Gears Media
    Главный режиссёр: Эндрю Бернштейн, Дэниэл Эттиэс, Колин Бакси

    Актеры
    Джош Дюамель, Дин Уинтерс, Джанет МакТир, Кэл Пенн, Обри Доллар, Дэймон Херриман, Лиза Лапира, Джесси Фудрей, Мередит Итон, Джули Перл, Артур Ричардсон

    Описание фильма

    Два детектива с разными взглядами на мир объединяются, чтобы очистить улицы Батл Крика, используя цинизм, коварство и обман…
    Доп. информация:
    Студийная озвучка
    Качество фильма: WEB-DLRip
    Контейнер: AVI
    Информация о видео: 720x400 (1.80: 1), 23.976 fps, XviD build 50 ~1803 kbps avg, 0.26 bit/pixel
    Информация о звуке: Russian, AC3, 48 kHz, 2 ch, 192 kbps
    Субтитры: отсутствуют
    Семпл
    MediaInfo

    Формат : AVI
    Формат/Информация : Audio Video Interleave
    Размер файла : 601 Мбайт
    Продолжительность : 41 м.
    Общий поток : 2005 Кбит/сек
    Программа кодирования : VirtualDubMod 1.5.10.2 (build 2540/release)
    Библиотека кодирования : VirtualDubMod build 2540/release
    Видео
    Идентификатор : 0
    Формат : MPEG-4 Visual
    Профиль формата : Advanced Simple@L5
    Параметр BVOP формата : 2
    Параметр QPel формата : Нет
    Параметр GMC формата : Без точки перехода
    Параметр матрицы формата : Default (MPEG)
    Идентификатор кодека : XVID
    Идентификатор кодека/Подсказка : XviD
    Продолжительность : 41 м.
    Битрейт : 1804 Кбит/сек
    Ширина : 720 пикселей
    Высота : 400 пикселей
    Соотношение сторон : 16: 9
    Частота кадров : 23, 976 кадра/сек
    Цветовое пространство : YUV
    Субдискретизация насыщенности : 4: 2: 0
    Битовая глубина : 8 бит
    Тип развёртки : Прогрессивная
    Метод сжатия : С потерями
    Бит/(Пиксели*Кадры) : 0.261
    Размер потока : 541 Мбайт (90%)
    Библиотека кодирования : XviD 1.2.1 (UTC 2008-12-04)
    Аудио
    Идентификатор : 1
    Формат : AC-3
    Формат/Информация : Audio Coding 3
    Расширение режима : CM (complete main)
    Параметр Endianness формата : Big
    Идентификатор кодека : 2000
    Продолжительность : 41 м.
    Вид битрейта : Постоянный
    Битрейт : 192 Кбит/сек
    Каналы : 2 канала
    Расположение каналов : Front: L R
    Частота : 48, 0 КГц
    Битовая глубина : 16 бит
    Метод сжатия : С потерями
    Размер потока : 57, 6 Мбайт (10%)
    Выравнивание : Разделение по промежуткам
    Продолжительность промежутка : 42 мс. (1, 00 видеокадр)
    Время предзагрузки промежутка : 500 мс.

    Скриншоты



    Релиз подготовил: Gears Media
    Залил: azn11

    Онлайн видео Батл Крик


    Размер скачиваемого торрента: 6.23 GB (6694660096 Bytes)

    Батл Крик/Battle Creek (2015) WEB-DLRip | Gears Media
    загрузка...
    Рейтинг →
     (голосов: 1, оценка 5/5, голосовать можно 1 раз )

    Другие торренты по теме:

  • Батл Крик / Battle Creek (2015) WEB-DLRip 720p | LostFilm
  • Батл Крик / Battle Creek (2015) WEB-DLRip | LostFilm
  • Батл Крик / Battle Creek (2015) WEB-DLRip | NewStudio
  • Батл Крик / Battle Creek (2015) WEB-DLRip 720p | LostFilm
  • Батл Крик / Battle Creek (2015) WEB-DLRip | LostFilm
  • Батл Крик / Battle Creek (2015) WEB-DL 720p | Gears Media
  • Батл Крик / Battle Creek (2015) WEB-DL 720p | Gears Media
  • Батл Крик / Battle Creek (2015) WEB-DL 720p | Gears Media


    • Комментарии (0):

      Информация

      Информация

        Посетители, находящиеся в группе Гости, не могут оставлять комментарии в данной новости.

        ↓ Меню



        ↓ Опрос

        Вы добавили сайт в закладки?
        Да
        Нет


        Top 10 за месяц (Фильмы)