.
Авторизация | Регистрация
Хочешь лучшие торренты? Добавь свой email!
Добавить
» » Курт Сеит и Александра / Kurt Seyit ve Sura (2014) SATRip | D торрент скачать бесплатно




    Курт Сеит и Александра / Kurt Seyit ve Sura (2014) SATRip | D торрент скачать бесплатно

    Опубликовал: Админ | Дата: 14-05-2015, 18:54 | Просмотров: 106


    Детально о кино
    Русское название: Курт Сеит и Александра/Курт Сеит и Шура
    Русское название в мировом прокате: Kurt Seyit ve Sura
    Создали в: 2014
    Категория жанра: драма, мелодрама, военный, история
    Главный режиссер: Хилаль Сарал

    Актеры
    Кыванч Татлытуг, Фара Зейнеп Абдулла, Berk Er?er, Сердар Гёкхан, Седа Гувен, Sarp Can K?roglu, Биркан Сокуллу, Ushan ?akir, Сергей Тэсслер

    Сюжет фильма

    Герои переживут крах правящей царской династии и Октябрьскую революцию. На фоне этих исторических событий, полных трагизма, горьких утрат, жестоких разочарований, и развернется история любви между бывшим офицером Царской армии лейтенантом Куртом Сеитом и шестнадцатилетней девушкой из аристократического рода Шурой.
    Официальный сайт
    Снималось в: Турция
    Киностудия: Ay Yapim, Star TV
    Время просмотра: ~ 01: 30: 00 серия
    Перевод текста: Професиональный (полное дублирование)Дубляж выполнен студией СВ-Дубль по заказу телеканала Домашний
    Файл
    Кодек для видео: XviD/MP3
    Качество фильма: SATRip
    Информация о видео: MPEG4, XviD, 704x400 (16: 9), 25.000 fps, 1 699 Kbps (0.241 bit/pixel)
    Информация о звуке: MP3, 44.1 KHz, 2 ch, 192 Kbps, CBR
    Скриншоты
    Screenshots
    MediaInfo
    General
    Complete name : Kurt.Seit.i.Alexandra.01.sezon.(001.serija.iz.13).2014.XviD.SATRip.avi
    Format : AVI
    Format/Info : Audio Video Interleave
    File size : 1.15 GiB
    Duration : 1h 26mn
    Overall bit rate : 1 901 Kbps
    Writing library : VirtualDub build 35491/release
    Video
    ID : 0
    Format : MPEG-4 Visual
    Format profile : Advanced Simple@L5
    Format settings, BVOP : 2
    Format settings, QPel : No
    Format settings, GMC : No warppoints
    Format settings, Matrix : Default (H.263)
    Muxing mode : Packed bitstream
    Codec ID : XVID
    Codec ID/Hint : XviD
    Duration : 1h 26mn
    Bit rate : 1 699 Kbps
    Width : 704 pixels
    Height : 400 pixels
    Display aspect ratio : 16: 9
    Frame rate : 25.000 fps
    Color space : YUV
    Chroma subsampling : 4: 2: 0
    Bit depth : 8 bits
    Scan type : Progressive
    Compression mode : Lossy
    Bits/(Pixel*Frame) : 0.241
    Stream size : 1.02 GiB (89%)
    Writing library : XviD 73
    Audio
    ID : 1
    Format : MPEG Audio
    Format version : Version 1
    Format profile : Layer 3
    Codec ID : 55
    Codec ID/Hint : MP3
    Duration : 1h 26mn
    Bit rate mode : Constant
    Bit rate : 192 Kbps
    Channel(s) : 2 channels
    Sampling rate : 44.1 KHz
    Compression mode : Lossy
    Stream size : 119 MiB (10%)
    Alignment : Split accross interleaves
    Interleave, duration : 40 ms (1.00 video frame)
    Interleave, preload duration : 500 ms


    Онлайн видео Курт Сеит и Александра


    Размер скачиваемого торрента: 26.86 GB (28839781336 Bytes)

    Курт Сеит и Александра/Kurt Seyit ve Sura (2014) SATRip | D
    загрузка...
    Рейтинг →
     (голосов: 1, оценка 4/5, голосовать можно 1 раз )

    Другие торренты по теме:

  • Курт Сеит и Александра / Kurt Seyit ve Sura (2014) SATRip | D
  • Курт Сеит и Александра / Kurt Seyit ve Sura (2014) WEB-DLRip | D
  • Курт Сеит и Шура / Kurt Seyit ve Sura


    • Комментарии (0):

      Информация

      Информация

        Посетители, находящиеся в группе Гости, не могут оставлять комментарии в данной новости.

        ↓ Меню



        ↓ Опрос

        Вы добавили сайт в закладки?
        Да
        Нет


        Top 10 за месяц (Фильмы)

        Игра в прятки. Тайная история камуфляжа / Dazzle. The hidden story of camouflage (Кейт Паппас) [2015, документальный, история, военный, познавательный, IPTVRip]
        Игра в прятки. О таком странном сюжете не догадывалась даже Волочкова. Тайная история камуфляжа/Dazzle. Все это как снег на голову, во все лопатки. The hidden story of camouflage
        (скачиваний: 3)
        Красный монарх / Red Monarch (Джек Голд) [1983, драма, комедия, DVDRip] DVO
        Красный монарх/Red Monarch
        (скачиваний: 2)
        Майдан. Революция обмана [Эфир от 20.02.2015] скачать через торрент бесплатно
        Майдан. Да м, ангельское терпение. Революция обмана Эфир от 20.02.2015
        (скачиваний: 2)
        Нераскрытые тайны. Как убивали Берию
        Нераскрытые тайны. Я например по сценарию ожидал большой напряженности. Как убивали Берию
        (скачиваний: 1)
        Мышеловка на три персоны (1-2 серии из 2) (Алексей Праздников) / [2017, детектив, мелодрама, WЕB-DLRір]
        Мышеловка на три персоны
        (скачиваний: 1)
        Приключения Одиссея / Ulіssе (Марио Камерини) [1954, фэнтези, приключения, DVDRір-АVС] DUB + MVО
        Приключения Одиссея/Ulisse
        (скачиваний: 1)
        Соль / Выпуск 37 - Николай Носков (Эфир от 29.01.2017) [2017, музыкальное шоу, WEBRip]
        Соль/Выпуск 37 - Николай Носков
        (скачиваний: 1)
        Сердечные увлечения / Affairs of the Heart (1994) VHSRip | A

        (скачиваний: 1)
        Я пел всем сердцем. Пётр Лещенко (Юрий Рашкин) / [2005, документальный, биография, SATRip]
        Я пел всем сердцем. Хватит уже заниматься никому не нужным делом. Пётр Лещенко
        (скачиваний: 1)
        Танцуют все! (8 сезон: 1-15 выпуски) / Танцюють всі!
        Танцуют все!
        (скачиваний: 1)