.
Авторизация | Регистрация
Хочешь лучшие торренты? Добавь свой email!
Добавить
» » Лофт / The Loft (2014) BDRip 720p от KinoGadget and KinoXa | iPad торрент скачать бесплатно




    Лофт / The Loft (2014) BDRip 720p от KinoGadget and KinoXa | iPad торрент скачать бесплатно

    Опубликовал: Админ | Дата: 21-05-2015, 15:04 | Просмотров: 183


    Создали в: 2014
    Снималось в: Бельгия, США
    Категория жанра: триллер
    Время просмотра: 01: 42: 59
    Перевод текста: Дублированный
    Главный режиссер: Эрик Ван Лой

    Актеры
    Карл Урбан, Джеймс Марсден, Вентворт Миллер, Эрик Стоунстрит, Маттиас Шонартс, Изабель Лукас, Рэйчел Тейлор, Рона Митра, Валери Крус, Кали Роша, Элейн Кэссиди, Маргарита Левиева, Кристин Леман, Роберт Уиздом, Рик Райц, Грэм Беккел, Кэти Дейч, Дора Мэдисон Бёрдж, Синди Вудс, Лора Кайюэтт
    Описание: Пятеро женатых друзей решают совместно снять респектабельную квартиру, чтобы приводить туда любовниц и реализовывать свои сексуальные фантазии. Но однажды они находят в квартире обнаженное тело убитой женщины… Все пятеро подозревают в убийстве друг друга.

    Информация о видео кодек: MPEG-4 AVC
    Качество фильма: BDRip 720p
    Параметры Видео: 1280x528, 23.976 fps; ~2 335 kbps avg
    Параметры Звука: 44.1 KHz, AAC, ~150.00 kbps avg, 2ch
    Тип видео: mp4
    Автор рипа:
    Релиз-группа:

    Meta Tags


    MI
    General
    Complete name : E: Loft.2014.D.BDRip.720p_KinoGadget.and.KinoXa.mp4
    Format : MPEG-4
    Format profile : Base Media
    Codec ID : isom
    File size : 1.79 GiB
    Duration : 1h 42mn
    Overall bit rate mode : Variable
    Overall bit rate : 2 492 Kbps
    Movie name : Лофт
    Performer : Эрик Ван Лой
    Genre : Thriller
    ContentType : Short Film
    Recorded date : 2014
    Encoded date : UTC 2015-05-20 15: 03: 49
    Tagged date : UTC 2015-05-20 15: 15: 31
    Cover : Yes
    ContentRating : mpaa|R|400|
    LongDeion : Пятеро женатых друзей решают совместно снять респектабельную квартиру, чтобы приводить туда любовниц и реализовывать свои сексуальные фантазии. Но однажды они находят в квартире обнаженное тело убитой женщины… Все пятеро подозревают в убийстве друг друга.
    HDVideo : Yes
    Video
    ID : 1
    Format : AVC
    Format/Info : Advanced Video Codec
    Format profile : High@L4.1
    Format settings, CABAC : Yes
    Format settings, ReFrames : 11 frames
    Codec ID : avc1
    Codec ID/Info : Advanced Video Coding
    Duration : 1h 42mn
    Bit rate : 2 335 Kbps
    Maximum bit rate : 12.5 Mbps
    Width : 1 280 pixels
    Height : 528 pixels
    Display aspect ratio : 2.40: 1
    Frame rate mode : Constant
    Frame rate : 23.976 fps
    Color space : YUV
    Chroma subsampling : 4: 2: 0
    Bit depth : 8 bits
    Scan type : Progressive
    Bits/(Pixel*Frame) : 0.144
    Stream size : 1.68 GiB (94%)
    Writing library : x264 core 146 r2538 121396c
    Encoding settings : cabac=1/ref=11/deblock=1: -1: -1/analyse=0x3: 0x133/me=umh/subme=9/psy=1/psy_rd=1.00: 0.20/mixed_ref=1/me_range=24/chroma_me=1/trellis=2/8x8dct=1/cqm=0/deadzone=21, 11/fast_pskip=1/chroma_qp_offset=-3/threads=3/lookahead_threads=1/sliced_threads=0/nr=0/decimate=1/interlaced=0/bluray_compat=0/constrained_intra=0/bframes=4/b_pyramid=2/b_adapt=2/b_bias=0/direct=3/weightb=1/open_gop=0/weightp=2/keyint=240/keyint_min=23/scenecut=40/intra_refresh=0/rc_lookahead=60/rc=crf/mbtree=1/crf=21.0/qcomp=0.60/qpmin=0/qpmax=69/qpstep=4/ip_ratio=1.40/aq=1: 1.50
    Encoded date : UTC 2015-05-20 11: 57: 43
    Tagged date : UTC 2015-05-20 15: 04: 45
    Audio
    ID : 2
    Format : AAC
    Format/Info : Advanced Audio Codec
    Format profile : LC
    Codec ID : 40
    Duration : 1h 42mn
    Bit rate mode : Variable
    Bit rate : 150 Kbps
    Maximum bit rate : 233 Kbps
    Channel count : 2 channels
    Channel positions : Front: L R
    Sampling rate : 44.1 KHz
    Compression mode : Lossy
    Stream size : 110 MiB (6%)
    Language : Russian
    Encoded date : UTC 2015-05-20 15: 04: 34
    Tagged date : UTC 2015-05-20 15: 04: 45

    Скриншоты


    Залил: KinoGadget
    Размер скачиваемого торрента: 1.79 GB (1925070663 Bytes)

    Лофт/The Loft (2014) BDRip 720p от KinoGadget and KinoXa | iPad
    загрузка...
    Рейтинг →
     (голосов: 1, оценка 5/5, голосовать можно 1 раз )

    Другие торренты по теме:

  • Лофт / The Loft (2014) BDRip 720p от HELLYWOOD | Лицензия
  • Лофт / The Loft (2014) BDRip-AVC от HELLYWOOD | Лицензия
  • Лофт / The Loft (2014) BDRip-AVC от HELLYWOOD | Лицензия
  • Лофт / The Loft
  • OST - Лофт / The Loft
  • Лофт / The Loft (Эрик Ван Лой) [2014, триллер, BDRip 1080p] DUB
  • Лофт / The Loft (Эрик Ван Лой) [2014, триллер, BDRemux 1080p] DUB
  • OST - Лофт / The Loft [2015, Score, MP3]


    • Комментарии (0):

      Информация

      Информация

        Посетители, находящиеся в группе Гости, не могут оставлять комментарии в данной новости.

        ↓ Меню



        ↓ Опрос

        Вы добавили сайт в закладки?
        Да
        Нет


        Top 10 за месяц (Фильмы)

        Приказ вернуться живым (1-5 серии из 5)
        Приказ вернуться живым
        (скачиваний: 4)
        Орел и решка. Кругосветка - Сакраменто (Эфир от 08.08.2016) / [2016, трэвел-шоу, SATRip]
        Орел  и едва заметно, решка. В это время ветер тихо покачивал деревья. Кругосветка - Сакраменто
        (скачиваний: 4)
        Агенты 003 (Эфир от 12.11.2016) (ТНТ) / [2016, ТВ-шоу, SATRip]
        Агенты 003
        (скачиваний: 4)
        Киев днем и ночью / Київ вдень і вночі (1-48 серии из 48) (Ксения Бугримова) [2016, сериалити, романтика, приключения, WEB-DL 720p]
        Киев днем  и привычно, ночью/Київ вдень і вночі
        (скачиваний: 4)
        Логан / Lоgаn (Джеймс Мэнголд) [2017, фантастика, боевик, триллер, драма, WЕB-DLRір-АVС] MVО+АVО
        Логан/Logan
        (скачиваний: 4)
        Семейное ограбление / Mеs trеsоrs (Паскаль Бурдьо) [2017, комедия, BDRір] DUB
        Семейное ограбление/Mes trеsors
        (скачиваний: 3)
        К сокровищам авиакатастрофы / Race for the Yankee Zephyr ( Дэвид Хеммингс) [1981, боевик, драма, приключения, Blu-ray 1080p] DUB MVO DVO AVO скачать через торрент бесплатно
        К сокровищам авиакатастрофы/Race for the Yankee Zephyr
        (скачиваний: 3)
        Лёд и небо / La glace et le ciel (Жак Ив Кусто, Мишель Папинески, Клод Лориус) [2015, документальный, WEBRip 720p] DUB
        Лёд  и как размытая картина, небо/La glace et le ciel
        (скачиваний: 3)
        Ты иногда вспоминай
        Ты иногда вспоминай
        (скачиваний: 3)
        Раскрывая тайны звезд. Надежда Румянцева / [2016, документальный, WEBRip]
        Раскрывая тайны звезд. Где то в небе орёл громко закричал и расправил крылья. Надежда Румянцева
        (скачиваний: 3)