.
Авторизация | Регистрация
» » Сельма / Selma (2014) HDRip от AleksSin | L2 скачать торрент бесплатно




    Сельма / Selma (2014) HDRip от AleksSin | L2 скачать торрент бесплатно

    Опубликовал: Админ | Дата: 18-05-2015, 10:14 | Просмотров: 124


    Детально о кино
    Русское название: Сельма
    Русское название в мировом прокате: Selma
    Создали в: 2014
    Категория жанра: драма, биография, история
    Главный режиссер: Ава ДюВерней

    Актеры
    Дэвид Ойелоуо, Кармен Эджого, Том Уилкинсон, Тим Рот, Лоррейн Туссен, Коммон, Джованни Рибизи, Рубен Сантьяго-Хадсон, Опра Уинфри, Кьюба Гудинг мл.

    Сюжет фильма

    Драма о маршах протеста, устроенных знаменитым правозащитником Мартином Лютером Кингом в местечке Сельма, штат Алабама.

    Снималось в: Великобритания, США
    Время просмотра: 02: 07: 55
    Перевод текста: любительский (двухголосый, закадровый)
    Файл
    Кодек для видео: AVI (XviD)
    Качество фильма: HDRip (Исх. BDRip 720p)
    Информация о видео: 720x304 (2.37: 1), 25 fps, XviD build 73 ~1428 kbps avg, 0.26 bit/pixel
    Информация о звуке: 48 kHz, AC3 Dolby Digital, 2/0 (L, R) ch, ~192.00 kbps avg
    Субтитры: нет
    Семпл
    MediaInfo

    Общее
    Полное имя : S: ФильмыСельма. 2014. HDRip (AleksSin).avi
    Формат : AVI
    Формат/Информация : Audio Video Interleave
    Размер файла : 1, 46 Гбайт
    Продолжительность : 2 ч. 7 м.
    Общий поток : 1629 Кбит/сек
    Программа кодирования : VirtualDubModRus 1.5.10.2 (build 2542/release)
    Библиотека кодирования : VirtualDubMod build 2542/release
    Видео
    Идентификатор : 0
    Формат : MPEG-4 Visual
    Профиль формата : Advanced Simple@L5
    Параметр BVOP формата : 1
    Параметр QPel формата : Нет
    Параметр GMC формата : Без точки перехода
    Параметр матрицы формата : Выборочная
    Идентификатор кодека : XVID
    Идентификатор кодека/Подсказка : XviD
    Продолжительность : 2 ч. 7 м.
    Битрейт : 1428 Кбит/сек
    Ширина : 720 пикс.
    Высота : 304 пикс.
    Соотношение сторон : 2, 35: 1
    Частота кадров : 25, 000 кадр/сек
    Цветовое пространство : YUV
    Подвыборка цветности : 4: 2: 0
    Битовая глубина : 8 бит
    Тип развёртки : Прогрессивная
    Метод сжатия : С потерями
    Бит/(Пиксели*Кадры) : 0.261
    Размер потока : 1, 28 Гбайт (88%)
    Библиотека кодирования : XviD 73
    Аудио
    Идентификатор : 1
    Формат : AC-3
    Формат/Информация : Audio Coding 3
    Расширение режима : CM (complete main)
    Идентификатор кодека : 2000
    Продолжительность : 2 ч. 7 м.
    Вид битрейта : Постоянный
    Битрейт : 192 Кбит/сек
    Каналы : 2 канала
    Расположение каналов : Front: L R
    Частота : 48, 0 КГц
    Битовая глубина : 16 бит
    Метод сжатия : С потерями
    Задержка видео : 7 мс.
    Размер потока : 176 Мбайт (12%)
    Выравнивание : Разделение по промежуткам
    Продолжительность промежутка : 40 мс. (1, 00 видеокадр)
    Время предзагрузки промежутка : 500 ms

    Скриншоты

    Релиз подготовил:
    Залил: *AleksSin*

    Онлайн видео Сельма


    Размер скачиваемого торрента: 1.46 GB (1563131904 Bytes)

    Сельма/Selma (2014) HDRip от AleksSin | L2
    загрузка...
    Рейтинг →
     (голосов: 1, оценка 3/5, голосовать можно 1 раз )

    Другие торренты по теме:

  • Сельма / Selma (2014) HDRip | L2 скачать торрент бесплатно
  • Сельма / Selma торрент скачать бесплатно
  • Рассказы (Лагерлёф Сельма) / [2016, Рассказы, литературные чтения, MP3, 192kbps, Котов Александр] торрент скачать бесплатно
  • Чудесное путешествие Нильса Хольгерссона по Швеции (Сельма Лагерлёф) / [2006, Сказка, аудиокнига, MP3, 128kbps, Валерий Захарьев] торрент скачать бесплатно
  • Чудесное путешествие Нильса с дикими гусями (Сельма Лагерлёф) / [2004, Сказка, аудиокнига, MP3, 192kbps, Татьяна Телегина] торрент скачать бесплатно
  • Новеллы (Лагерлёф Сельма) / [2013, Новеллы, аудиокнига, MP3, 96kbps, Иванова Маргарита] торрент скачать бесплатно


    • Комментарии (0):

      Информация

      Информация

        Посетители, находящиеся в группе Гости, не могут оставлять комментарии в данной новости.

        ↓ Меню



        ↓ Опрос

        Вы добавили сайт в закладки?
        Да
        Нет


        Top 10 за неделю (Фильмы)

        Викинг (Андрей Кравчук) / [2016, исторический, драма, CamRip]
        Викинг
        (просмотров: 4541)
        Демон внутри / The Autopsy of Jane Doe (Андре Овредал / Andre Ovredal) [2016, ужасы, LowHDRip] ENG
        Демон внутри/The Autopsy of Jane Doe
        (просмотров: 3751)
        Иллюзия обмана 2 / Now You See Me 2 (Джон М. Чу) [2016, триллер, детектив, BDRip] DUB
        Иллюзия обмана 2/Now You See Me 2
        (просмотров: 3731)
        Равные / Equals (Дрейк Доримус) [2015, Фантастика, драма, мелодрама, HDRip]
        Равные/Equals
        (просмотров: 3711)
        Равные / Equals (Дрейк Доримус) [2015, фантастика, драма, мелодрама, WEB-DL 1080p] DUB [Line]
        Равные/Equals
        (просмотров: 3701)
        Западный мир / Мир Дикого запада, 1 сезон 1-2 серии из 10 / Westworld [Amedia] (Джонатан Нолан, Джей Джей Абрамс, Лиза Джой) [2016, фантастика, триллер, вестерн, HDTVRip 720p, DUB]
        Западный мир/Мир Дикого запада, как правило,  1 сезон любимого сериала 1-2 серии из 10/Westworld Amedia
        (просмотров: 3691)
        Иллюзия обмана 2 / Now You See Me 2 (Джон М. Чу ) [2016, боевик, триллер, комедия, криминал, детектив, приключения, BDRip-AVC] DUB
        Иллюзия обмана 2/Now You See Me 2
        (просмотров: 3691)
        Кухня 5 сезон / Кухня
        Кухня 5 сезон любимого сериала/Кухня, едва заметно,  сезон любимого сериала 5 серии 1-20 Оригинальное
        (просмотров: 3681)
        Иллюзия обмана 2 / Now You See Me 2 (Джон М. Чу) [2016, боевик, триллер, комедия, TeleSynch] DUB
        Иллюзия обмана 2/Now You See Me 2
        (просмотров: 3671)
        Иллюзия обмана 2 / Now You See Me 2 (Джон М. Чу) [2016, триллер, детектив, HDRip] DUB
        Иллюзия обмана 2/Now You See Me 2
        (просмотров: 3671)