.
Авторизация | Регистрация
Хочешь лучшие торренты? Добавь свой email!
Добавить
» » Сельма / Selma (2014) HDRip от AleksSin | L2 торрент скачать бесплатно




    Сельма / Selma (2014) HDRip от AleksSin | L2 торрент скачать бесплатно

    Опубликовал: Админ | Дата: 18-05-2015, 10:14 | Просмотров: 124


    Детально о кино
    Русское название: Сельма
    Русское название в мировом прокате: Selma
    Создали в: 2014
    Категория жанра: драма, биография, история
    Главный режиссер: Ава ДюВерней

    Актеры
    Дэвид Ойелоуо, Кармен Эджого, Том Уилкинсон, Тим Рот, Лоррейн Туссен, Коммон, Джованни Рибизи, Рубен Сантьяго-Хадсон, Опра Уинфри, Кьюба Гудинг мл.

    Сюжет фильма

    Драма о маршах протеста, устроенных знаменитым правозащитником Мартином Лютером Кингом в местечке Сельма, штат Алабама.

    Снималось в: Великобритания, США
    Время просмотра: 02: 07: 55
    Перевод текста: любительский (двухголосый, закадровый)
    Файл
    Кодек для видео: AVI (XviD)
    Качество фильма: HDRip (Исх. BDRip 720p)
    Информация о видео: 720x304 (2.37: 1), 25 fps, XviD build 73 ~1428 kbps avg, 0.26 bit/pixel
    Информация о звуке: 48 kHz, AC3 Dolby Digital, 2/0 (L, R) ch, ~192.00 kbps avg
    Субтитры: нет
    Семпл
    MediaInfo

    Общее
    Полное имя : S: ФильмыСельма. 2014. HDRip (AleksSin).avi
    Формат : AVI
    Формат/Информация : Audio Video Interleave
    Размер файла : 1, 46 Гбайт
    Продолжительность : 2 ч. 7 м.
    Общий поток : 1629 Кбит/сек
    Программа кодирования : VirtualDubModRus 1.5.10.2 (build 2542/release)
    Библиотека кодирования : VirtualDubMod build 2542/release
    Видео
    Идентификатор : 0
    Формат : MPEG-4 Visual
    Профиль формата : Advanced Simple@L5
    Параметр BVOP формата : 1
    Параметр QPel формата : Нет
    Параметр GMC формата : Без точки перехода
    Параметр матрицы формата : Выборочная
    Идентификатор кодека : XVID
    Идентификатор кодека/Подсказка : XviD
    Продолжительность : 2 ч. 7 м.
    Битрейт : 1428 Кбит/сек
    Ширина : 720 пикс.
    Высота : 304 пикс.
    Соотношение сторон : 2, 35: 1
    Частота кадров : 25, 000 кадр/сек
    Цветовое пространство : YUV
    Подвыборка цветности : 4: 2: 0
    Битовая глубина : 8 бит
    Тип развёртки : Прогрессивная
    Метод сжатия : С потерями
    Бит/(Пиксели*Кадры) : 0.261
    Размер потока : 1, 28 Гбайт (88%)
    Библиотека кодирования : XviD 73
    Аудио
    Идентификатор : 1
    Формат : AC-3
    Формат/Информация : Audio Coding 3
    Расширение режима : CM (complete main)
    Идентификатор кодека : 2000
    Продолжительность : 2 ч. 7 м.
    Вид битрейта : Постоянный
    Битрейт : 192 Кбит/сек
    Каналы : 2 канала
    Расположение каналов : Front: L R
    Частота : 48, 0 КГц
    Битовая глубина : 16 бит
    Метод сжатия : С потерями
    Задержка видео : 7 мс.
    Размер потока : 176 Мбайт (12%)
    Выравнивание : Разделение по промежуткам
    Продолжительность промежутка : 40 мс. (1, 00 видеокадр)
    Время предзагрузки промежутка : 500 ms

    Скриншоты

    Релиз подготовил:
    Залил: *AleksSin*

    Онлайн видео Сельма


    Размер скачиваемого торрента: 1.46 GB (1563131904 Bytes)

    Сельма/Selma (2014) HDRip от AleksSin | L2
    загрузка...
    Рейтинг →
     (голосов: 1, оценка 5/5, голосовать можно 1 раз )

    Другие торренты по теме:

  • Сельма / Selma (2014) HDRip | L2
  • Сельма / Selma
  • Рассказы (Лагерлёф Сельма) / [2016, Рассказы, литературные чтения, MP3, 192kbps, Котов Александр]
  • Чудесное путешествие Нильса Хольгерссона по Швеции (Сельма Лагерлёф) / [2006, Сказка, аудиокнига, MP3, 128kbps, Валерий Захарьев]
  • Чудесное путешествие Нильса с дикими гусями (Сельма Лагерлёф) / [2004, Сказка, аудиокнига, MP3, 192kbps, Татьяна Телегина]
  • Новеллы (Лагерлёф Сельма) / [2013, Новеллы, аудиокнига, MP3, 96kbps, Иванова Маргарита]


    • Комментарии (0):

      Информация

      Информация

        Посетители, находящиеся в группе Гости, не могут оставлять комментарии в данной новости.

        ↓ Меню



        ↓ Опрос

        Вы добавили сайт в закладки?
        Да
        Нет


        Top 10 за месяц (Фильмы)

        Орел и решка. Кругосветка - Сакраменто (Эфир от 08.08.2016) / [2016, трэвел-шоу, SATRip]
        Орел  и едва заметно, решка. В это время ветер тихо покачивал деревья. Кругосветка - Сакраменто
        (скачиваний: 4)
        Приказ вернуться живым (1-5 серии из 5)
        Приказ вернуться живым
        (скачиваний: 4)
        Киев днем и ночью / Київ вдень і вночі (1-48 серии из 48) (Ксения Бугримова) [2016, сериалити, романтика, приключения, WEB-DL 720p]
        Киев днем  и привычно, ночью/Київ вдень і вночі
        (скачиваний: 4)
        Агенты 003 (Эфир от 12.11.2016) (ТНТ) / [2016, ТВ-шоу, SATRip]
        Агенты 003
        (скачиваний: 4)
        Логан / Lоgаn (Джеймс Мэнголд) [2017, фантастика, боевик, триллер, драма, WЕB-DLRір-АVС] MVО+АVО
        Логан/Logan
        (скачиваний: 4)
        Семейное ограбление / Mеs trеsоrs (Паскаль Бурдьо) [2017, комедия, BDRір] DUB
        Семейное ограбление/Mes trеsors
        (скачиваний: 3)
        Лёд и небо / La glace et le ciel (Жак Ив Кусто, Мишель Папинески, Клод Лориус) [2015, документальный, WEBRip 720p] DUB
        Лёд  и как размытая картина, небо/La glace et le ciel
        (скачиваний: 3)
        Жизнь и смерть Фердинанда Люса / Бомба для председателя (4 серии) скачать через торрент бесплатно
        Жизнь  и вертится как белка в колесе, смерть Фердинанда Люса/Бомба для председателя
        (скачиваний: 3)
        Игра в прятки. Тайная история камуфляжа / Dazzle. The hidden story of camouflage (Кейт Паппас) [2015, документальный, история, военный, познавательный, IPTVRip]
        Игра в прятки. О таком странном сюжете не догадывалась даже Волочкова. Тайная история камуфляжа/Dazzle. Все это как снег на голову, во все лопатки. The hidden story of camouflage
        (скачиваний: 3)
        Универ. Новая общага. Новогодняя (141 серия)
        Универ. Cтроки эти как вершины поэзии. Новая общага. Как для меня не ожиданный поворот событий. Новогодняя
        (скачиваний: 3)