.
Авторизация | Регистрация
Хочешь лучшие торренты? Добавь свой email!
Добавить
» » Обещание / The Pledge (2001) HDTV 1080i торрент скачать бесплатно




    Обещание / The Pledge (2001) HDTV 1080i торрент скачать бесплатно

    Опубликовал: Админ | Дата: 14-05-2015, 18:54 | Просмотров: 175


    Детально о кино
    Русское название: Обещание
    Русское название в мировом прокате: The Pledge
    Создали в: 2001
    Категория жанра: Триллер, драма, криминал, детектив
    Главный режиссер: Шон Пенн

    Актеры
    Джек Николсон, Бенисио Дель Торо, Аарон Экхарт, Хелен Миррен, Том Нунен, Робин Райт, Ванесса Редгрейв, Микки Рурк, Сэм Шепард, Лоис Смит

    Сюжет фильма

    Детектив отдела по расследованию убийств Джерри Блэк выходит на пенсию. Последний рабочий день Джерри заканчивается прощальной вечеринкой, где коллеги вручают виновнику торжества билет на самолет в Мексику, где Блэк давно мечтал порыбачить.
    В это же самое время в горах находят изуродованный труп восьмилетней девочки. Выход на пенсию откладывается, как, впрочем, и поездка в Мексику: Джерри выезжает на место преступления. И именно старый детектив берет на себя тяжелое бремя сообщить родителям о том, что их ребенка безжалостно убили.
    Мать девочки требует от Блэка обещание, что он обязательно найдет убийцу. И Джерри дает это обещание, еще не представляя, что оно навсегда изменит его жизнь…

    Снималось в: Clyde Is Hungry Films, Morgan Creek Productions, Warner Bros.
    Время просмотра: 01: 57: 44
    Перевод текста: Дублированный + Авторский (одноголосый, закадровый) Сергей Визгунов + Оригинал
    Файл
    Кодек для видео: x264
    Качество фильма: HDTV 1080i (HDTRACKER)
    Информация о видео: 1920х1080 (16: 9), 9428 Kbps, 25, 000 fps
    Информация о звуке #1: 48.0 kHz, AC3 Dolby Digital, 3/2 (L, C, R, l, r) + LFE ch, 448 kbps Дубляж
    Информация о звуке #2: 48.0 kHz, AC3 Dolby Digital, 3/2 (L, C, R, l, r) + LFE ch, 448 kbps Авторский, С. Визгунов
    Информация о звуке #3: 48.0 kHz, AC3 Dolby Digital, 3/2 (L, C, R, l, r) + LFE ch, 448 kbps Оригинал, Английский
    Субтитры: Русские, английские
    Семпл

    MediaInfo
    Общее
    Идентификатор : 1 (0x1)
    Полное имя : E: The.Pledge.2001.x264.HDTV.1080iBDMVSTREAM0000.m2ts
    Формат : BDAV
    Формат/Информация : Blu-ray Video
    Размер файла : 9, 24 Гбайт
    Продолжительность : 1 ч. 57 м.
    Режим общего битрейта : Переменный
    Общий поток : 11, 2 Мбит/сек
    Максимальный общий битрейт : 35, 5 Мбит/сек
    Видео
    Идентификатор : 4113 (0x1011)
    Идентификатор меню : 1 (0x1)
    Формат : AVC
    Формат/Информация : Advanced Video Codec
    Профиль формата : Main@L4
    Параметр CABAC формата : Да
    Параметр ReFrames формата : 4 кадра
    Параметр GOP формата : M=4, N=24
    Идентификатор кодека : 27
    Продолжительность : 1 ч. 57 м.
    Вид битрейта : Переменный
    Битрейт : 9428 Кбит/сек
    Максимальный битрейт : 40, 0 Мбит/сек
    Ширина : 1920 пикселей
    Высота : 1080 пикселей
    Соотношение сторон : 16: 9
    Частота кадров : 25, 000 кадров/сек
    Цветовое пространство : YUV
    Субдискретизация насыщенности : 4: 2: 0
    Битовая глубина : 8 бит
    Тип развёртки : Чересстрочная
    Порядок развёртки : Верхнее поле первое
    Бит/(Пиксели*Кадры) : 0.182
    Размер потока : 7, 75 Гбайт (84%)
    Цветовой диапазон : Full
    Основные цвета : BT.709
    Характеристики трансфера : BT.709
    Коэффициенты матрицы : BT.709
    Аудио #1
    Идентификатор : 4352 (0x1100)
    Идентификатор меню : 1 (0x1)
    Формат : AC-3
    Формат/Информация : Audio Coding 3
    Расширение режима : CM (complete main)
    Параметр Endianness формата : Big
    Идентификатор кодека : 129
    Продолжительность : 1 ч. 57 м.
    Вид битрейта : Постоянный
    Битрейт : 448 Кбит/сек
    Каналы : 6 каналов
    Расположение каналов : Front: L C R, Side: L R, LFE
    Частота : 48, 0 КГц
    Битовая глубина : 16 бит
    Метод сжатия : С потерями
    Размер потока : 377 Мбайт (4%)
    Язык : Russian
    Аудио #2
    Идентификатор : 4353 (0x1101)
    Идентификатор меню : 1 (0x1)
    Формат : AC-3
    Формат/Информация : Audio Coding 3
    Расширение режима : CM (complete main)
    Параметр Endianness формата : Big
    Идентификатор кодека : 129
    Продолжительность : 1 ч. 57 м.
    Вид битрейта : Постоянный
    Битрейт : 448 Кбит/сек
    Каналы : 6 каналов
    Расположение каналов : Front: L C R, Side: L R, LFE
    Частота : 48, 0 КГц
    Битовая глубина : 16 бит
    Метод сжатия : С потерями
    Размер потока : 377 Мбайт (4%)
    Язык : Russian
    Аудио #3
    Идентификатор : 4354 (0x1102)
    Идентификатор меню : 1 (0x1)
    Формат : AC-3
    Формат/Информация : Audio Coding 3
    Расширение режима : CM (complete main)
    Параметр Endianness формата : Big
    Идентификатор кодека : 129
    Продолжительность : 1 ч. 57 м.
    Вид битрейта : Постоянный
    Битрейт : 448 Кбит/сек
    Каналы : 6 каналов
    Расположение каналов : Front: L C R, Side: L R, LFE
    Частота : 48, 0 КГц
    Битовая глубина : 16 бит
    Метод сжатия : С потерями
    Размер потока : 377 Мбайт (4%)
    Язык : English
    Текст #1
    Идентификатор : 4608 (0x1200)
    Идентификатор меню : 1 (0x1)
    Формат : PGS
    Идентификатор кодека : 144
    Язык : Russian
    Текст #2
    Идентификатор : 4609 (0x1201)
    Идентификатор меню : 1 (0x1)
    Формат : PGS
    Идентификатор кодека : 144
    Язык : English
    BDInfo
    Disc Title: The.Pledge.2001.x264.HDTV.1080i
    Disc Size: 9 918 572 600 bytes
    Protection: AACS
    BD-Java: No
    Extras: 50Hz Content
    BDInfo: 0.5.8
    Notes:
    BDINFO HOME:
    Cinema Squid
    http://www.cinemasquid.com/blu-ray/tools/bdinfo
    INCLUDES FORUMS REPORT FOR:
    AVS Forum Blu-ray Audio and Video Specifications Thread
    http://www.avsforum.com/avs-vb/showthread.php?t=1155731
    ********************
    PLAYLIST: 00000.MPLS
    ********************
    code
    Total Video
    Title Codec Length Movie Size Disc Size Bitrate Bitrate Main Audio Track Secondary Audio Track
    ----- ------ ------- -------------- -------------- ------- ------- ------------------ ---------------------
    00000.MPLS AVC 1: 57: 43 9 918 486 528 9 918 572 600 11, 23 0, 00 DD AC3 5.1 448Kbps DD AC3 5.1 448Kbps
    /code
    code
    DISC INFO:
    Disc Title: The.Pledge.2001.x264.HDTV.1080i
    Disc Size: 9 918 572 600 bytes
    Protection: AACS
    BD-Java: No
    Extras: 50Hz Content
    BDInfo: 0.5.8
    PLAYLIST REPORT:
    Name: 00000.MPLS
    Length: 1: 57: 43.480 (h: m: s.ms)
    Size: 9 918 486 528 bytes
    Total Bitrate: 11, 23 Mbps
    VIDEO:
    Codec Bitrate Deion
    ----- ------- -----------
    MPEG-4 AVC Video 0 kbps 1080i/25 fps/16: 9/Main Profile 4.0
    AUDIO:
    Codec Language Bitrate Deion
    ----- -------- ------- -----------
    Dolby Digital Audio Russian 448 kbps 5.1/48 kHz/448 kbps
    Dolby Digital Audio Russian 448 kbps 5.1/48 kHz/448 kbps
    Dolby Digital Audio English 448 kbps 5.1/48 kHz/448 kbps
    SUBTITLES:
    Codec Language Bitrate Deion
    ----- -------- ------- -----------
    Presentation Graphics Russian 0, 000 kbps
    Presentation Graphics English 0, 000 kbps
    FILES:
    Name Time In Length Size Total Bitrate
    ---- ------- ------ ---- -------------
    00000.M2TS 0: 00: 00.000 1: 57: 43.480 9 918 486 528 0
    CHAPTERS:
    Number Time In Length Avg Video Rate Max 1-Sec Rate Max 1-Sec Time Max 5-Sec Rate Max 5-Sec Time Max 10Sec Rate Max 10Sec Time Avg Frame Size Max Frame Size Max Frame Time
    ------ ------- ------ -------------- -------------- -------------- -------------- -------------- -------------- -------------- -------------- -------------- --------------
    1 0: 00: 00.000 1: 57: 43.480 9 300 kbps 20 992 kbps 00: 22: 36.066 17 886 kbps 00: 16: 12.706 16 769 kbps 01: 48: 52.866 46 500 bytes 413 144 bytes 00: 22: 52.920
    STREAM DIAGNOSTICS:
    File PID Type Codec Language Seconds Bitrate Bytes Packets
    ---- --- ---- ----- -------- -------------- -------------- ------------- -----
    00000.M2TS 4113 (0x1011) 0x1B AVC 7063, 400 9 300 8 211 360 318 44 692 833
    00000.M2TS 4352 (0x1100) 0x81 AC3 rus (Russian) 7063, 400 448 395 524 864 2 207 170
    00000.M2TS 4353 (0x1101) 0x81 AC3 rus (Russian) 7063, 400 448 395 523 072 2 207 178
    00000.M2TS 4354 (0x1102) 0x81 AC3 eng (English) 7063, 400 448 395 524 864 2 207 170
    00000.M2TS 4608 (0x1200) 0x90 PGS rus (Russian) 7063, 400 20 17 630 202 103 072
    00000.M2TS 4609 (0x1201) 0x90 PGS eng (English) 7063, 400 18 15 984 383 94 173
    /code
    QUICK SUMMARY:
    Disc Title: The.Pledge.2001.x264.HDTV.1080i
    Disc Size: 9 918 572 600 bytes
    Protection: AACS
    BD-Java: No
    Playlist: 00000.MPLS
    Size: 9 918 486 528 bytes
    Length: 1: 57: 43.480
    Total Bitrate: 11, 23 Mbps
    Video: MPEG-4 AVC Video/0 kbps/1080i/25 fps/16: 9/Main Profile 4.0
    Audio: Russian/Dolby Digital Audio/5.1/48 kHz/448 kbps
    Audio: Russian/Dolby Digital Audio/5.1/48 kHz/448 kbps
    Audio: English/Dolby Digital Audio/5.1/48 kHz/448 kbps
    Subtitle: Russian/0, 000 kbps
    Subtitle: English/0, 000 kbps

    Залил: K.A.F.

    Онлайн видео Обещание


    Размер скачиваемого торрента: 9.24 GB (9918572600 Bytes)

    Обещание/The Pledge (2001) HDTV 1080i
    загрузка...
    Рейтинг →
     (голосов: 1, оценка 4/5, голосовать можно 1 раз )

    Другие торренты по теме:

  • Обещание / The Pledge (2001) HDTV 1080i
  • Обещание / A Promise
  • Обещание на рассвете
  • Обещание
  • Обещание (Даниэла Стил) / [2015, СЛР, аудиокнига, MP3, 96kbps, Оксана Санькова]
  • OST - Обещание / A Promise [2014, Score, MP3]
  • Обещание (1-2 серии из 2) (Юрий Лейзеров) / [2016, драма, спорт, HDTVRip]
  • Обещание (1-2 серии из 2) (Юрий Лейзеров) / [2016, драма, спорт, HDTVRip-AVC]


    • Комментарии (0):

      Информация

      Информация

        Посетители, находящиеся в группе Гости, не могут оставлять комментарии в данной новости.

        ↓ Меню



        ↓ Опрос

        Вы добавили сайт в закладки?
        Да
        Нет


        Top 10 за месяц (Фильмы)